* Dettagli Torrent   globale  | Commenti (0) 


- Arrivano i Prof (2018).720p.H264.italian.Ac3-5.1.sub.ita.eng-MIRCrew -


Download via torrent:
Categoria bittorrent BDRip
Descrizione
Arrivano i Prof 2018.720p.H264.italian.Ac3-5.1.sub.ita.eng-MIRCrew



NO FOUND ONLY ORIGINAL RELEASE



My release is always in double track audio italian and Original audio
for select it use VLC or dvd player home
not use wmp

ENGLISH SUBTITLE INSIDE

Arrivano i Prof 2018

Quality MIRCrew on HD 720p da  1,6 gb









GENERE: Commedia
ANNO: 2018
REGIA: Ivan Silvestrini
PAESE: Italia
DURATA: 100 Min



Claudio Bisio, Lino Guanciale, Maurizio Nichetti, Maria Di Biase, Shalana Santana, Pietro Ragusa, Alessio Sakara, Andrea Pennacchi, Giusy Buscemi, Francesco Procopio, Christian Ginepro, Irene Vetere, Rocco Hunt



Mentre (quasi) tutti festeggiano le promozioni all'esame di maturità, al liceo Alessandro Manzoni c'è grande preoccupazione: solo il 12% degli studenti è riuscito a conseguire il diploma. Il Manzoni ha un primato assoluto: è il peggior liceo d'Italia. Non sapendo più che soluzioni adottare, il Preside accoglie la proposta del Provveditore e decide di fare un ultimo, estremo, rischioso tentativo: reclutare i peggiori insegnanti in circolazione selezionati dall'algoritmo ministeriale nella speranza che dove hanno fallito i migliori, possano riuscire i peggiori.



While (almost) everyone celebrates promotions at the high school exam, at the Alessandro Manzoni high school there is great concern: only 12% of the students managed to obtain the diploma. Manzoni has an absolute record: it is the worst high school in Italy. Knowing no more than solutions to adopt, the Dean welcomes the proposal of the Provveditore and decides to make one last, extreme, risky attempt: recruit the worst teachers in circulation selected by the ministerial algorithm in the hope that where the best have failed, they can succeed the worst .







[spoiler]
General
Complete name                            : Arrivano i Prof 2018.720p.h264.ita.sub.ita.eng-MIRCrew\Arrivano i Prof 2018.720p.h264.ita.sub.ita.eng-MIRCrew.mkv
Format                                   : Matroska
Format version                           : Version 2
File size                                : 1.63 GiB
Duration                                 : 1h 40mn
Overall bit rate                         : 2 332 Kbps
Movie name                               : MIRCrew
Encoded date                             : UTC 2018-09-08 17:37:48
Writing application                      : Lavf54.63.100
Writing library                          : Lavf54.63.100
COPYRIGHT                                : robbyrs

Video
ID                                       : 1
Format                                   : AVC
Format/Info                              : Advanced Video Codec
Format profile                           : [email protected]
Format settings, CABAC                   : Yes
Format settings, ReFrames                : 2 frames
Codec ID                                 : V_MPEG4/ISO/AVC
Duration                                 : 1h 40mn
Bit rate                                 : 1 900 Kbps
Width                                    : 1 264 pixels
Height                                   : 528 pixels
Display aspect ratio                     : 2.40:1
Frame rate mode                          : Variable
Frame rate                               : 24.000 fps
Color space                              : YUV
Chroma subsampling                       : 4:2:0
Bit depth                                : 8 bits
Scan type                                : Progressive
Bits/(Pixel*Frame)                       : 0.119
Stream size                              : 1.29 GiB (79%)
Writing library                          : x264 core 130 r2273
Encoding settings                        : cabac=1 / ref=2 / deblock=1:0:0 / analyse=0x1:0x131 / me=hex / subme=7 / psy=1 / psy_rd=1.00:0.00 / mixed_ref=0 / me_range=16 / chroma_me=1 / trellis=1 / 8x8dct=0 / cqm=0 / deadzone=21,11 / fast_pskip=1 / chroma_qp_offset=-2 / threads=3 / lookahead_threads=1 / sliced_threads=0 / nr=0 / decimate=1 / interlaced=0 / bluray_compat=0 / constrained_intra=0 / bframes=3 / b_pyramid=0 / b_adapt=1 / b_bias=0 / direct=3 / weightb=1 / open_gop=0 / weightp=2 / keyint=240 / keyint_min=24 / scenecut=40 / intra_refresh=0 / rc_lookahead=40 / rc=abr / mbtree=1 / bitrate=1900 / ratetol=1.0 / qcomp=0.60 / qpmin=10 / qpmax=69 / qpstep=4 / vbv_maxrate=24000 / vbv_bufsize=24000 / nal_hrd=none / ip_ratio=1.40 / aq=1:1.00
Language                                 : Italian
Default                                  : Yes
Forced                                   : No

Audio
ID                                       : 2
Format                                   : AC-3
Format/Info                              : Audio Coding 3
Mode extension                           : CM (complete main)
Codec ID                                 : A_AC3
Duration                                 : 1h 40mn
Bit rate mode                            : Constant
Bit rate                                 : 448 Kbps
Channel(s)                               : 6 channels
Channel positions                        : Front: L C R, Side: L R, LFE
Sampling rate                            : 48.0 KHz
Bit depth                                : 16 bits
Compression mode                         : Lossy
Delay relative to video                  : 1mn 5s
Stream size                              : 321 MiB (19%)
Title                                    : Ita Ac3 5.1
Language                                 : Italian
Default                                  : No
Forced                                   : No


Menu
00:00:00.000                             : 01)00:00:00:000
00:07:00.458                             : 02)00:07:00:458
00:20:56.875                             : 03)00:20:56:875
00:30:13.916                             : 04)00:30:13:916
00:38:06.708                             : 05)00:38:06:708
00:47:43.500                             : 06)00:47:43:500
00:56:09.541                             : 07)00:56:09:541
01:05:09.166                             : 001:05:09:166
01:14:05.500                             : 09)01:14:05:500
01:21:06.666                             : 10)01:21:06:666
01:27:50.833                             : 11)01:27:50:833
01:37:08.291                             : 12)01:37:08:291


[/spoiler]



Info: Per scaricare devi usare un client come uTorrent o Transmission
AnnounceURL
udp://tracker.coppersurfer.tk:6969/announce
Hash b070e047eaea17df1a1ae5004f12a64921ddd3c9
Peers seeds: 254 , leech: 23
Size 1.63 GB
Completato 6638x
Aggiunto 10.09.18 - 13:09:30
Uploader   robbyrs
Votazione (Voti: 1)


Condividi questo bittorrent:


html/blog:


bbcode/forum:




Aggiungi Commento


counter