* Dettagli Torrent   globale  | Commenti (0) 


- Due maschi per Alexa (1971).720p.H264.italian.Ac3-sub.eng-MIRCrew -


Download via torrent:
Categoria bittorrent BDRip
Descrizione
Two Males for Alexa - Due maschi per Alexa (1971).720p.H264.italian.Ac3-sub.eng-MIRCrew


NO FOUND ONLY ORIGINAL RELEASE



My release is always in double track audio italian and Original audio
for select it use VLC or dvd player home
not use wmp

ENGLISH SUBTITLE INSIDE

Due maschi per Alexa

Two Males for Alexa


(1971)

Quality MIRCrew HD on 720p  1,9 gb








GENERE: Drammatico
ANNO: 1972
REGIA: Juan Logar
PAESE: Italia
DURATA: 86 Min



Mario Della Vigna, Juan Luís Galiardo, Curd Jürgens, Franco Marletta, Rosalba Neri, Ricardo Tundidor



Sposata con Roland Marvely, ricco ma troppo vecchio per lei, Alexa s'è fatta un amante, Pietro, tra le cui braccia s'abbandona, senza scrupoli né rimorsi, quasi sotto gli occhi del marito. Al corrente della relazione, questi, dopo averli scoperti avvinghiati l'uno all'altra, s'uccide in loro presenza



A young girl marries the wealthy father of one of her female friends at college, but she soon finds herself falling in love with another young man. The husband finds out about the two, and ...









[spoiler]
General

Complete name                            : Due maschi per Alexa - Two Males for Alexa (1971).h264.ita.sub.eng-MIRCrew\Due maschi per Alexa - Two Males for Alexa (1971).h264.ita.sub.eng-MIRCrew.mkv
Format                                   : Matroska
Format version                           : Version 4 / Version 2
File size                                : 1.90 GiB
Duration                                 : 1h 25mn
Overall bit rate                         : 3 200 Kbps
Encoded date                             : UTC 2018-08-27 21:35:56
Writing application                      : mkvmerge v6.2.0 ('Promised Land') built on Apr 28 2013 12:22:01
Writing library                          : libebml v1.3.0 + libmatroska v1.4.0
DURATION                                 : 01:19:58.625000000
NUMBER_OF_FRAMES                         : 863
NUMBER_OF_BYTES                          : 14098408
_STATISTICS_WRITING_APP                  : mkvmerge v19.0.0 ('Brave Captain') 64-bit
_STATISTICS_WRITING_DATE_UTC             : 2018-01-12 13:42:10
_STATISTICS_TAGS                         : BPS DURATION NUMBER_OF_FRAMES NUMBER_OF_BYTES

Video
ID                                       : 1
Format                                   : AVC
Format/Info                              : Advanced Video Codec
Format profile                           : [email protected]
Format settings, CABAC                   : Yes
Format settings, ReFrames                : 10 frames
Codec ID                                 : V_MPEG4/ISO/AVC
Duration                                 : 1h 25mn
Bit rate                                 : 2 999 Kbps
Width                                    : 1 024 pixels
Height                                   : 556 pixels
Display aspect ratio                     : 16:9
Frame rate                               : 24.000 fps
Color space                              : YUV
Chroma subsampling                       : 4:2:0
Bit depth                                : 8 bits
Scan type                                : Progressive
Bits/(Pixel*Frame)                       : 0.219
Stream size                              : 1.75 GiB (92%)
Writing library                          : x264 core 152 r2851 ba24899
Encoding settings                        : cabac=1 / ref=10 / deblock=1:-1:-1 / analyse=0x3:0x133 / me=umh / subme=10 / psy=1 / psy_rd=1.00:0.15 / mixed_ref=1 / me_range=32 / chroma_me=1 / trellis=2 / 8x8dct=1 / cqm=0 / deadzone=21,11 / fast_pskip=0 / chroma_qp_offset=-3 / threads=12 / lookahead_threads=3 / sliced_threads=0 / nr=0 / decimate=0 / interlaced=0 / bluray_compat=0 / constrained_intra=0 / bframes=13 / b_pyramid=2 / b_adapt=2 / b_bias=0 / direct=3 / weightb=1 / open_gop=0 / weightp=2 / keyint=240 / keyint_min=24 / scenecut=40 / intra_refresh=0 / rc_lookahead=60 / rc=2pass / mbtree=0 / bitrate=2999 / ratetol=3.0 / qcomp=0.60 / qpmin=0 / qpmax=69 / qpstep=4 / cplxblur=20.0 / qblur=0.5 / vbv_maxrate=62500 / vbv_bufsize=78125 / nal_hrd=none / filler=0 / ip_ratio=1.40 / pb_ratio=1.30 / aq=1:1.00
Language                                 : English
Default                                  : Yes
Forced                                   : No


Audio
ID                                       : 2
Format                                   : AC-3
Format/Info                              : Audio Coding 3
Mode extension                           : CM (complete main)
Codec ID                                 : A_AC3
Duration                                 : 1h 25mn
Bit rate mode                            : Constant
Bit rate                                 : 192 Kbps
Channel(s)                               : 2 channels
Channel positions                        : Front: L R
Sampling rate                            : 48.0 KHz
Bit depth                                : 16 bits
Compression mode                         : Lossy
Stream size                              : 117 MiB (6%)
Title                                    : ita
Language                                 : Italian
Default                                  : Yes
Forced                                   : No

Menu
00:00:00.000                             : en:00:00:00.000
00:12:40.625                             : en:00:12:40.625
00:31:39.333                             : en:00:31:39.333
00:47:11.250                             : en:00:47:11.250
01:00:33.333                             : en:01:00:33.333
01:16:10.750                             : en:01:16:10.750



[/spoiler]



Info: Per scaricare devi usare un client come uTorrent o Transmission
AnnounceURL
udp://tracker.coppersurfer.tk:6969/announce
Hash 1ea997719b7cbf2ab2bb9075234b98d7f5ed7000
Peers seeds: 9 , leech: 4
Size 1.90 GB
Completato 304x
Aggiunto 10.09.18 - 17:09:07
Uploader   robbyrs
Votazione (Voti: 0)


Condividi questo bittorrent:


html/blog:


bbcode/forum:




Aggiungi Commento


counter