* Dettagli Torrent   globale  | Commenti (4) 


- Ocean s 8 (2018).720p.H264.italian.english.Ac3-5.1.sub.NUita.eng-MIRCrew -


Download via torrent:
Categoria bittorrent BDRip
Descrizione
Ocean's Eight - Ocean's 8 2018.720p.H264.italian.english.Ac3-5.1.sub.NUita.eng-MIRCrew




NO FOUND ONLY ORIGINAL RELEASE



My release is always in double track audio italian and Original audio
for select it use VLC or dvd player home
not use wmp

SOTTOTITOLI ITALIANI PER NON UDENTI ICLUSI

Ocean's 8 - Ocean's Eight

2018

Quality MIRCrew on HD 720p da  2,1 gb









GENERE: Azione, Thriller
ANNO: 2018
REGIA: Gary Ross
PAESE: USA
DURATA: 110 Min



Sandra Bullock, Cate Blanchett, Anne Hathaway, Mindy Kaling, Sarah Paulson, Awkwafina, Rihanna, Helena Bonham Carter, Matt Damon, Dakota Fanning, Olivia Munn, Richard Armitage, Katie Holmes, James Corden, Kim Kardashian



Un po' sequel, un po' spinoff della trilogia firmata Steven Soderbergh, Ocean's 8 porta in scena una nuova banda di donne truffatrici capitanate dall'astuta Sandra Bullock. Debbie Ocean (Bullock), sorella di Danny (il personaggio interpretato da George Clooney), progetta di mettere a segno il colpo del secolo in occasione dell'annuale Met Gala di New York



Danny Ocean's estranged sister Debbie attempts to pull off the heist of the century at New York City's star-studded annual Met Gala. Her first stop is to assemble the perfect all-female crew: Lou, Rose, Daphne Kluger, Nine Ball, Tammy, Amita, and Constance.  







[spoiler]
General

Complete name                            : Ocean's 8 2018.720p.h264.ita.eng.sub.ita.eng-MIRCrew\Ocean's 8 2018.720p.h264.ita.eng.sub.ita.eng-MIRCrew.mkv
Format                                   : Matroska
Format version                           : Version 2
File size                                : 2.15 GiB
Duration                                 : 1h 50mn
Overall bit rate                         : 2 792 Kbps
Movie name                               : MIRCrew
Encoded date                             : UTC 2018-09-09 21:17:31
Writing application                      : Lavf54.63.100
Writing library                          : Lavf54.63.100
COPYRIGHT                                : robbyrs

Video
ID                                       : 1
Format                                   : AVC
Format/Info                              : Advanced Video Codec
Format profile                           : [email protected]
Format settings, CABAC                   : Yes
Format settings, ReFrames                : 2 frames
Codec ID                                 : V_MPEG4/ISO/AVC
Duration                                 : 1h 50mn
Bit rate                                 : 1 900 Kbps
Width                                    : 1 280 pixels
Height                                   : 528 pixels
Display aspect ratio                     : 2.40:1
Frame rate mode                          : Variable
Frame rate                               : 23.976 fps
Color space                              : YUV
Chroma subsampling                       : 4:2:0
Bit depth                                : 8 bits
Scan type                                : Progressive
Bits/(Pixel*Frame)                       : 0.117
Stream size                              : 1.42 GiB (66%)
Writing library                          : x264 core 130 r2273
Encoding settings                        : cabac=1 / ref=2 / deblock=1:0:0 / analyse=0x1:0x131 / me=hex / subme=7 / psy=1 / psy_rd=1.00:0.00 / mixed_ref=0 / me_range=16 / chroma_me=1 / trellis=1 / 8x8dct=0 / cqm=0 / deadzone=21,11 / fast_pskip=1 / chroma_qp_offset=-2 / threads=3 / lookahead_threads=1 / sliced_threads=0 / nr=0 / decimate=1 / interlaced=0 / bluray_compat=0 / constrained_intra=0 / bframes=3 / b_pyramid=0 / b_adapt=1 / b_bias=0 / direct=3 / weightb=1 / open_gop=0 / weightp=2 / keyint=230 / keyint_min=23 / scenecut=40 / intra_refresh=0 / rc_lookahead=40 / rc=abr / mbtree=1 / bitrate=1900 / ratetol=1.0 / qcomp=0.60 / qpmin=10 / qpmax=69 / qpstep=4 / vbv_maxrate=24000 / vbv_bufsize=24000 / nal_hrd=none / ip_ratio=1.40 / aq=1:1.00
Language                                 : Italian
Default                                  : Yes
Forced                                   : No


Audio #1
ID                                       : 2
Format                                   : AC-3
Format/Info                              : Audio Coding 3
Mode extension                           : CM (complete main)
Codec ID                                 : A_AC3
Duration                                 : 1h 50mn
Bit rate mode                            : Constant
Bit rate                                 : 448 Kbps
Channel(s)                               : 6 channels
Channel positions                        : Front: L C R, Side: L R, LFE
Sampling rate                            : 48.0 KHz
Bit depth                                : 16 bits
Compression mode                         : Lossy
Delay relative to video                  : 1mn 5s
Stream size                              : 353 MiB (16%)
Language                                 : Italian


Audio #2
ID                                       : 3
Format                                   : AC-3
Format/Info                              : Audio Coding 3
Mode extension                           : CM (complete main)
Codec ID                                 : A_AC3
Duration                                 : 1h 50mn
Bit rate mode                            : Constant
Bit rate                                 : 448 Kbps
Channel(s)                               : 6 channels
Channel positions                        : Front: L C R, Side: L R, LFE
Sampling rate                            : 48.0 KHz
Bit depth                                : 16 bits
Compression mode                         : Lossy
Delay relative to video                  : 1mn 5s
Stream size                              : 353 MiB (16%)
Language                                 : English


Menu
00:00:00.000                             : :Chapter 1
00:11:18.261                             : :Chapter 2
00:20:06.747                             : :Chapter 3
00:31:37.104                             : :Chapter 4
00:41:29.612                             : :Chapter 5
00:49:18.914                             : :Chapter 6
00:56:22.296                             : :Chapter 7
01:05:50.071                             : :Chapter 8
01:16:32.546                             : :Chapter 9
01:27:01.174                             : :Chapter 10
01:35:42.153                             : :Chapter 11
01:44:08.659                             : :Chapter 12



[/spoiler]



Info: Per scaricare devi usare un client come uTorrent o Transmission
AnnounceURL
udp://tracker.coppersurfer.tk:6969/announce
Hash 6796b1973814a8808dc0da31e65b4afa3d9522a2
Peers seeds: 486 , leech: 88
Size 2.15 GB
Completato 10711x
Aggiunto 10.09.18 - 19:09:28
Uploader   robbyrs
Votazione (Voti: 0)


Condividi questo bittorrent:


html/blog:


bbcode/forum:




Aggiungi Commento
Ultimi commenti
 kaimkaim   
perfetto .. grazie
14/09 12.49
avatar   robbyrs   
doppio audio italiano e inglese
11/09 22.09
  
tutto italiano??
audio?
11/09 11.21
Tutti commenti (4)


counter